<?xml version="1.0" standalone="no"?>
<!DOCTYPE svg PUBLIC "-//W3C//DTD SVG 1.1//EN" "http://www.w3.org/Graphics/SVG/1.1/DTD/svg11.dtd" >
<!--
2013-9-30: Created.
-->
<svg>
<metadata>
Created by iconfont
</metadata>
<defs>

<font id="iconfont" horiz-adv-x="1024" >
  <font-face
    font-family="iconfont"
    font-weight="500"
    font-stretch="normal"
    units-per-em="1024"
    ascent="896"
    descent="-128"
  />
    <missing-glyph />
    
    <glyph glyph-name="41xuanzhiyijianshutongji" unicode="&#59051;" d="M464.099423-96.090976 174.930431-96.090976c-97.817028 0-174.415334 74.904643-174.415334 170.452802 0 1.054545 0.095868 2.10909 0.319559 3.195591L96.350859 546.254687c1.789531 8.66005 10.417625 14.156466 18.853984 12.462803 8.66005-1.757575 14.220378-10.193934 12.494759-18.822029L32.471003 72.827942c0.798898-78.164146 61.802722-136.931057 142.459428-136.931057L464.099423-64.103115c8.81983 0 15.977953-7.126167 15.977953-15.977953C480.077376-88.900898 472.919253-96.090976 464.099423-96.090976zM974.019813 224.81023c-8.81983 0-15.977953 7.158123-15.977953 15.977953l0 176.843983c0 79.282602-64.518974 143.801576-143.801576 143.801576L465.21788 561.433742c-8.81983 0-15.977953 7.158123-15.977953 15.977953s7.158123 15.977953 15.977953 15.977953l349.022404 0c96.890307 0 175.757482-78.83522 175.757482-175.757482l0-176.843983C989.997766 231.968353 982.839643 224.81023 974.019813 224.81023zM278.755169 375.162767l-12.814318 17.032498C245.521027 419.261917 187.936485 493.655266 166.685808 512.12578 129.265442 544.656892 107.854985 591.664029 107.854985 641.131771c0 94.20601 76.630262 170.868229 170.868229 170.868229s170.868229-76.630262 170.868229-170.868229c0-49.979037-21.85784-97.305733-59.885368-129.836845-21.090898-18.055087-78.004366-92.064965-98.168543-119.067705L278.755169 375.162767zM278.691258 780.012138c-76.56635 0-138.912323-62.314016-138.912323-138.912323 0-40.20053 17.447925-78.451749 47.869947-104.879283 21.314589-18.534425 68.225859-78.387837 91.01042-108.010962 22.56087 29.591169 68.928889 89.125021 90.211522 107.339888 30.965273 26.491446 48.700801 64.966357 48.700801 105.582313C417.60358 717.730078 355.289564 780.012138 278.691258 780.012138zM512.576532 61.739243c-9.938287-140.925545 96.251188-263.156885 237.144777-273.095171 140.957501-9.938287 263.156885 96.3151 273.127127 237.240645 9.874375 140.797721-96.3151 263.124929-237.272601 273.03126l-17.927263-255.103996L512.576532 61.739243zM485.350101 89.381101l253.570113-17.831395-171.858862 187.517255C520.853112 216.469739 490.079575 156.999798 485.350101 89.381101zM772.346091 349.438263c-73.242936 5.144901-141.309016-21.282633-191.320008-67.458917l171.922773-187.549211 1.469972-0.095868L772.346091 349.438263z"  horiz-adv-x="1024" />

    
    <glyph glyph-name="jianyi" unicode="&#58898;" d="M48.761905-163.238095 975.238095-163.238095 975.238095 202.47619 1024 202.47619 1024-212 0-212 0 812 999.619048 812 999.619048 763.238095 48.761905 763.238095 48.761905-163.238095ZM1024.195048 416.760381 541.720381-65.714286 390.241524-65.714286 390.241524 85.764571 872.69181 568.214857 1024.195048 416.760381ZM437.833143-18.098286 522.020571-18.098286 956.854857 416.760381 872.69181 500.899048 437.833143 66.064762 437.833143-18.098286ZM146.285714 397.52381 146.285714 446.285714 560.761905 446.285714 560.761905 397.52381 146.285714 397.52381ZM146.285714 641.333333 731.428571 641.333333 731.428571 592.571429 146.285714 592.571429 146.285714 641.333333Z"  horiz-adv-x="1025" />

    
    <glyph glyph-name="yuandianxiao" unicode="&#59439;" d="M480 416m-160 0a2.5 2.5 0 1 0 320 0 2.5 2.5 0 1 0-320 0Z"  horiz-adv-x="1024" />

    
    <glyph glyph-name="zhuanjiayijian" unicode="&#59076;" d="M725.036489 567.216835c0 142.772704-116.137067 258.912841-258.907725 258.912841-69.483514 0-132.651182-27.511587-179.201381-72.206532-49.463552-46.171576-80.401168-111.937418-80.401168-184.939059 0-24.245194 3.417843-47.690162 9.785877-69.888743 19.686365-72.108295 69.832462-131.769093 135.695518-164.243715-59.977-18.348903-114.918309-51.206242-160.495344-96.79965-73.363891-73.342402-113.76095-170.876786-113.76095-274.605242 0-11.922541 9.649777-21.576411 21.574365-21.576411 11.927657 0 21.577434 9.653871 21.577434 21.576411 0 92.201935 35.907815 178.88518 101.115955 244.104577 62.850443 62.866816 145.704476 98.479919 234.216369 100.964506 3.285836-0.12689 6.581905-0.211824 9.888208-0.211824C608.899422 308.303994 725.036489 424.445154 725.036489 567.216835zM943.123506 211.579045 777.495258 211.579045 726.312552 369.102708 675.129846 211.579045 509.501598 211.579045 643.500475 114.22374 592.317769-43.298899 726.312552 54.055382 860.308359-43.298899 809.12463 114.22374Z"  horiz-adv-x="1024" />

    
    <glyph glyph-name="mima" unicode="&#58922;" d="M927.311379 799.304727c-126.782521 126.763079-332.334038 126.763079-459.116559 0-99.954503-99.955526-121.081683-248.851695-63.426565-369.513822L1.628592 26.686035l7.52437-145.539724 145.501862-7.52437 58.506509 58.511625c-0.080841 0.079818-76.478835 76.54228-51.016931 102.038978 25.477254 25.460882 101.845573-50.825572 102.035908-51.015907L315.199287 34.180729c-0.284479 0.283456-76.476789 76.555583-51.014884 102.000092 25.474185 25.51 102.006232-51.003628 102.006232-51.003628l-4.264117-4.26514 55.273884 55.279001c-0.444115 0.445138-76.44609 76.577073-51.009767 102.012372 25.51 25.511024 102.005208-51.002604 102.005208-51.002604L449.642279 168.633954l108.149139 108.154255c120.67236-57.642838 269.571598-36.514635 369.519961 63.435775C1054.057061 466.990133 1054.057061 672.523229 927.311379 799.304727zM774.247284 493.252263c-42.247196-42.266639-110.776989-42.266639-152.989393 0-42.284035 42.249243-42.284035 110.759593 0 153.026232 42.212404 42.24822 110.742197 42.24822 152.989393 0C816.53439 604.011856 816.53439 535.501506 774.247284 493.252263z"  horiz-adv-x="1024" />

    
    <glyph glyph-name="icon-xiugai" unicode="&#58891;" d="M821.236 449.763c-16.79 0-27.983-11.192-27.983-27.984v-358.212c0-39.177-27.987-72.76-67.169-72.76h-520.525c-39.183 0-83.956 33.582-83.956 72.76v520.529c0 39.178 44.773 78.36 83.956 78.36h296.646c16.792 0 27.985 11.193 27.985 27.985 0 16.791-11.193 27.984-27.985 27.984h-296.646c-78.358 0-139.926-55.97-139.926-134.329v-520.529c0-78.355 61.569-128.73 139.926-128.73h520.526c78.361 0 123.136 50.375 123.136 128.73v352.619c0 16.787-11.195 33.578-27.985 33.578M933.179 763.2l-44.774 44.776c-33.585 33.584-89.561 33.584-123.139 0l-78.357-95.149-425.381-414.183v-11.193l-55.969-184.702 39.177-33.582 173.511 61.566h11.193l408.589 430.973 95.151 78.36c33.581 33.583 33.581 89.551-0.002 123.134M283.919 147.524l27.983 78.361 50.376-50.376-78.36-27.984M412.649 203.493l-78.356 78.358 386.2 380.604 72.76-72.764-380.604-386.198M893.996 684.842l-55.968-55.97-83.957 83.955 55.974 55.973c5.592 0 16.79 5.594 22.385 5.594 5.599 0 16.79-5.594 22.389-5.594l44.778-44.776c5.597-11.198 5.597-27.989-5.601-39.182M893.996 684.842z"  horiz-adv-x="1024" />

    
    <glyph glyph-name="nodata-message" unicode="&#58904;" d="M787.669881 43.799251h18.590291v-11.499331h-18.590291zM793.035061 38.048607c0-3.259807-2.48888-5.748687-5.748686-5.748687-3.25785 0-5.748687 2.48888-5.748687 5.748687 0 3.255893 2.490837 5.748687 5.748687 5.748687 3.25785 0.001957 5.748687-2.68259 5.748686-5.748687zM811.815148 38.048607c0-3.259807-2.490837-5.748687-5.748686-5.748687-3.25785 0-5.748687 2.48888-5.748687 5.748687 0 3.255893 2.490837 5.748687 5.748687 5.748687 3.25785 0.001957 5.748687-2.68259 5.748686-5.748687zM254.924322 43.799251h503.426865v-11.499331H254.924322zM763.908121 38.048607c0-3.259807-2.492793-5.748687-5.748687-5.748687-3.25785 0-5.748687 2.48888-5.748687 5.748687 0 3.255893 2.490837 5.748687 5.748687 5.748687 3.255893 0.001957 5.748687-2.68259 5.748687-5.748687zM260.674966 38.048607c0-3.259807-2.490837-5.748687-5.748687-5.748687-3.259807 0-5.748687 2.48888-5.748687 5.748687 0 3.255893 2.48888 5.748687 5.748687 5.748687 3.066097 0.001957 5.748687-2.68259 5.748687-5.748687zM474.538637 14.282933m-9.006536 0a9.006537 9.006537 0 1 1 18.013073 0 9.006537 9.006537 0 1 1-18.013073 0ZM351.507348 21.18214h96.776736v-11.497374h-96.776736zM505.007852 21.18214h102.908929v-11.497374h-102.908929zM356.874485 15.43541c0-3.255893-2.48888-5.748687-5.748687-5.748687-3.259807 0-5.748687 2.492793-5.748687 5.748687 0 3.255893 2.48888 5.748687 5.748687 5.748687 3.25785-0.001957 5.748687-2.684547 5.748687-5.748687zM454.22648 15.43541c0-3.255893-2.490837-5.748687-5.748686-5.748687-3.25785 0-5.748687 2.492793-5.748687 5.748687 0 3.255893 2.490837 5.748687 5.748687 5.748687 3.06414-0.001957 5.748687-2.684547 5.748686-5.748687zM510.373032 15.43541c0-3.255893-2.48888-5.748687-5.748687-5.748687-3.255893 0-5.748687 2.492793-5.748687 5.748687 0 3.255893 2.492793 5.748687 5.748687 5.748687 3.068053-0.001957 5.748687-2.684547 5.748687-5.748687zM613.475671 15.43541c0-3.255893-2.492793-5.748687-5.748687-5.748687-3.25785 0-5.748687 2.492793-5.748687 5.748687 0 3.255893 2.490837 5.748687 5.748687 5.748687 3.255893-0.001957 5.748687-2.684547 5.748687-5.748687zM606.576464-2.769417h93.708682v-11.49933h-93.708682zM737.078307-2.769417h42.925354v-11.49933h-42.925354zM612.323194-8.518104c0-3.255893-2.48888-5.748687-5.748687-5.748687-3.259807 0-5.748687 2.492793-5.748687 5.748687 0 3.255893 2.48888 5.748687 5.748687 5.748687 3.066097 0 5.748687-2.684547 5.748687-5.748687zM786.327608-8.518104c0-3.255893-2.48888-5.748687-5.748687-5.748687-3.255893 0-5.748687 2.492793-5.748687 5.748687 0 3.255893 2.492793 5.748687 5.748687 5.748687 3.259807 0 5.748687-2.684547 5.748687-5.748687zM710.632-14.268747a10.14923 10.14923 0 0 0-1.721867 5.748686c0 5.556933 4.598167 10.157057 10.1551 10.157057s10.1551-4.60208 10.1551-10.157057a10.147274 10.147274 0 0 0-1.723823-5.748686h12.647894a19.286864 19.286864 0 0 1 0.573303 4.78992c0 11.689127-9.57984 21.270924-21.268967 21.270924-11.691084 0-21.274837-9.581797-21.274837-21.270924 0-1.534027 0.195667-3.255893 0.577216-4.78992h11.880881zM592.200833-8.518104c0-3.255893-2.48888-5.748687-5.748686-5.748687h-9.579841c-3.25785 0-5.748687 2.492793-5.748686 5.748687 0 3.255893 2.490837 5.748687 5.748686 5.748687h9.579841c3.068053 0 5.748687-2.684547 5.748686-5.748687zM228.863479 670.249578c-10.34881-10.73036-27.403117-10.92407-38.137391-0.573303l-17.629567 17.056264c-10.73036 10.346854-10.922114 27.403117-0.57526 38.135434 10.34881 10.732317 27.403117 10.92407 38.13739 0.573303l17.629568-17.054307c10.73036-10.540564 10.922114-27.596827 0.57526-38.137391zM774.065178 703.786846c0-1.342273-1.72578-2.490837-3.83311-2.490837h-41.966588c-2.10733 0-3.835067 1.148563-3.835067 2.490837v6.5157c0 1.342273 1.727737 2.490837 3.835067 2.490836h41.966588c2.10733 0 3.83311-1.148563 3.83311-2.490836v-6.5157zM745.89309 682.132415c-1.342273 0-2.490837 1.72578-2.490836 3.831154V728.125823c0 2.10733 1.15052 3.83311 2.490836 3.83311h6.5157c1.342273 0 2.490837-1.72578 2.490837-3.83311v-41.968544c0-2.10733-1.15052-3.83311-2.490837-3.833111l-6.5157-0.191753zM468.212734 747.479213c0-0.765057-1.146607-1.53207-2.48888-1.53207h-25.871047c-1.342273 0-2.490837 0.767013-2.490837 1.53207v4.024864c0 0.767013 1.15052 1.534027 2.490837 1.534026h25.871047c1.34423 0 2.48888-0.767013 2.48888-1.534026v-4.024864zM450.966674 734.066263c-0.765057 0-1.53207 1.15052-1.53207 2.490837V762.428147c0 1.340317 0.76897 2.490837 1.53207 2.490837h4.02682c0.767013 0 1.534027-1.15052 1.534026-2.490837v-25.871047c0-1.342273-0.76897-2.490837-1.534026-2.490837h-4.02682zM608.490084 778.523687c-13.221197 0-23.761761-10.73036-23.761761-23.76176s10.73036-23.763717 23.761761-23.763717 23.763717 10.73036 23.763717 23.763717-10.73036 23.761761-23.763717 23.76176z m-0.38155-35.06738c-6.132193 0-10.922114 4.981673-10.922114 10.92407 0 5.94044 4.979717 10.92407 10.922114 10.92407 5.94044 0 10.922114-4.98363 10.922113-10.92407 0-5.942397-4.981673-10.92407-10.922113-10.92407zM504.242795 563.703206m-15.330484 0a15.330484 15.330484 0 1 1 30.660968 0 15.330484 15.330484 0 1 1-30.660968 0ZM284.244973 459.452003m-9.19829 0a9.19829 9.19829 0 1 1 18.39658 0 9.19829 9.19829 0 1 1-18.39658 0ZM883.679603 211.477761L839.605686 251.912279c4.78992 22.419487 7.282713 45.801654 7.282713 69.561458 0 185.122194-150.242653 335.362891-335.364847 335.362891-46.566711 0-90.834339-9.581797-131.268857-26.636104l-38.904404 40.434518c-4.024863 4.216617-10.922114 4.406413-15.136774 0.191753-4.21466-4.024863-4.406413-10.922114-0.191753-15.13873l33.916861-35.069338c7.66622-10.540564 6.901163-25.105991-2.299084-34.877584-10.346854-10.92407-27.594871-11.307577-38.51894-0.76897l-6.707454 6.517657-39.092244 37.943681c-10.540564 10.1551-27.021567 9.771594-37.176668-0.57526-10.157057-10.34881-9.775507-27.021567 0.573304-37.178625l44.267627-42.925354a26.528487 26.528487 0 0 0-0.767013-34.877584c-9.965304-10.92407-26.827857-11.691084-37.560174-1.72578l-4.212704 3.83311-0.195666-0.191753-38.706781 34.302324c-16.48296 14.948934-41.780704 13.798414-56.917478-2.490837-14.946977-16.479047-13.798414-41.776791 2.490837-56.915521l53.274164-48.674041c-14.56347-37.560174-22.421444-78.184488-22.421444-120.73025 0-110.762989 53.659628-208.883955 136.254443-270.016093h398.025143a332.915101 332.915101 0 0 1 50.208068 45.611858l17.631523-16.099454c16.481004-14.94502 41.776791-13.796457 56.915522 2.492794 15.140687 16.28925 13.798414 41.774834-2.490837 56.913564l-25.295787 23.188458v0.195666l-36.026148 32.960051c-7.66622 6.89725-8.24148 18.782044-1.15052 26.448264 7.089003 7.66622 18.780087 8.237567 26.446307 1.148563l27.213321-24.91228v0.191753l26.634147-24.33702c9.96726-9.19829 25.681251-8.433234 34.687788 1.530113 9.388087 10.1551 8.814784 25.679294-1.342274 34.877584z m-623.004637 118.239413c0-0.76897-1.15052-1.534027-2.490837-1.534027h-9.392v-9.388087c0-1.346187-0.765057-2.492793-1.53207-2.492793h-4.024863c-0.767013 0-1.53207 1.148563-1.53207 2.492793v9.388087h-9.390044c-1.342273 0-2.490837 0.767013-2.490837 1.534027v4.022907c0 0.76897 1.15052 1.534027 2.490837 1.534026h9.390044v9.392c0 1.340317 0.767013 2.48888 1.53207 2.48888h4.024863c0.76897 0 1.53207-1.15052 1.53207-2.48888v-9.392h9.392c1.342273 0 2.490837-0.767013 2.490837-1.534026v-4.022907z m23.378254 107.890602c-11.88088 0-21.652474 9.57984-21.652474 21.654431 0 12.072634 9.57984 21.65443 21.652474 21.65443 11.88088 0 21.652474-9.581797 21.652474-21.65443s-9.771594-21.65443-21.652474-21.654431z m220.189575 98.692312c-15.524194 0-27.980334 12.45614-27.980334 27.978378a27.888371 27.888371 0 0 0 27.980334 27.97642 27.888371 27.888371 0 0 0 27.978377-27.97642 27.888371 27.888371 0 0 0-27.978377-27.978378z m209.073751-20.699577c0-0.765057-1.148563-1.53207-2.490836-1.53207h-9.390044v-9.390043c0-1.342273-0.767013-2.490837-1.53207-2.490837h-4.024863c-0.767013 0-1.534027 1.15052-1.534027 2.490837v9.390043h-9.390044c-1.342273 0-2.48888 0.767013-2.48888 1.53207v3.831154c0 0.76897 1.148563 1.535983 2.48888 1.535983h9.390044v9.388087c0 1.342273 0.76897 2.490837 1.534027 2.490837h4.024863c0.767013 0 1.53207-1.148563 1.53207-2.490837v-9.388087h9.390044c1.34423 0 2.490837-0.767013 2.490836-1.535983v-3.831154zM664.832302 321.473737c0-76.268912-68.990112-137.978266-153.88401-137.978267-4.600123 0-9.008494 0.195667-13.412951 0.577217-9.392 0.76897-26.827857-13.41295-38.522854-21.656387-2.297127 14.567384 0.195667 27.982291-11.113867 33.153761-23.763717 10.157057-90.836295 69.755168-90.836295 125.903676 0 76.272825 68.988155 137.978266 153.88401 137.978266 84.897812 0 153.885967-61.897195 153.885967-137.978266zM679.397729 321.473737a11.618687 11.618687 0 0 1-11.689127 11.69304 11.620644 11.620644 0 0 1-11.694997-11.69304c0-66.687115-64.771538-120.728293-144.108503-120.728293h-0.573304c-2.490837 0-5.175383-0.573303-7.470553-2.30104l-43.696281-32.768297v31.236227c0 0.577217 0 1.152477-0.191754 1.72578 0.958767 5.367137-2.105373 10.926027-7.47251 12.841604-51.550341 19.545144-84.895855 62.854005-84.895855 110.189686a11.614774 11.614774 0 0 1-11.689127 11.689127 11.614774 11.614774 0 0 1-11.691083-11.689127c0-54.812105 36.028104-104.636666 92.562075-128.969773v-50.208068c0-4.40837 2.48888-8.43519 6.513743-10.540564 1.72578-0.767013 3.449603-1.152477 5.175384-1.152476a12.060894 12.060894 0 0 1 7.09096 2.30104l59.406358 44.459381c90.834339 1.146607 164.424574 65.153088 164.424574 143.914793zM358.792018 349.456028c6.130237-2.111243 12.839647 0.958767 14.946977 7.089003 18.206784 50.591574 74.930552 85.852665 137.978267 85.852665 63.239468 0 120.154989-35.452844 138.170019-86.234215 1.721867-4.791877 6.12828-7.861887 10.922114-7.861887 1.340317 0 2.68259 0.195667 3.831153 0.767014 6.132193 2.10733 9.19829 8.814784 7.090961 14.95089-21.65443 60.938428-86.044419 101.756452-160.207957 101.756452-73.776118 0-138.168063-40.626271-160.014247-101.183149-2.111243-6.32199 1.148563-13.029444 7.282713-15.136773zM466.107361 377.244608a11.618687 11.618687 0 0 1-11.691084-11.694997v-11.497373c0-6.513743 5.175383-11.689127 11.691084-11.689127s11.691084 5.175383 11.691083 11.689127v11.497373a11.6226 11.6226 0 0 1-11.691083 11.694997zM557.323249 377.244608a11.618687 11.618687 0 0 1-11.689127-11.694997v-11.497373a11.614774 11.614774 0 0 1 11.689127-11.689127 11.614774 11.614774 0 0 1 11.691084 11.689127v11.497373a11.618687 11.618687 0 0 1-11.691084 11.694997zM540.652449 312.852663c-5.367137 3.449603-12.647894 2.109287-16.099454-3.25785 0 0-5.175383-7.474467-12.839647-7.474467-7.47251 0-12.07459 6.70941-12.45614 7.284671a11.720434 11.720434 0 0 1-16.097497 3.641356c-5.556933-3.45156-7.09096-10.540564-3.83311-16.099453 4.21466-6.705497 15.712034-18.204827 32.193037-18.204827 16.48296 0 28.172087 11.30562 32.386748 18.013073 3.64527 5.363223 2.1132 12.458097-3.253937 16.097497z"  horiz-adv-x="1024" />

    
    <glyph glyph-name="yonghuming" unicode="&#58970;" d="M511.808 384c121.344 0 219.84 100.352 219.84 224.128S633.152 832.192 511.808 832.192c-121.408 0-219.84-100.288-219.84-224.064s98.368-224.128 219.84-224.128z m302.848-139.84c-50.24 58.496-67.2 78.656-159.168 84.032h-287.04c-92.032-5.504-108.928-25.536-159.04-84.032-53.376-60.352-95.872-137.024-75.776-231.872 22.4-62.144 82.688-76.416 139.904-76.416H750.592c57.152 0 117.568 14.4 139.968 76.416 19.904 94.848-22.528 171.456-75.904 231.872z"  horiz-adv-x="1024" />

    
    <glyph glyph-name="daochu" unicode="&#58995;" d="M725.312 287.232V462.848c0 74.112-326.784-24.192-384-263.424 0 0-75.584-88-85.312 0 0 0 109.696 482.944 469.312 482.944V814.08s42.688 61.824 128-43.968L1024 594.56l-298.688-307.328zM128 462.848a43.392 43.392 0 0 1-42.688-43.968v-351.232c0-24.256 19.072-43.904 42.688-43.904h725.312a43.328 43.328 0 0 1 42.688 43.904v43.904c0 24.256 19.072 43.968 42.688 43.968 23.616 0 42.688-19.712 42.688-43.968v-87.808C981.312-24.768 943.104-64 896-64H85.312C38.208-64 0-24.768 0 23.744V462.848c0 48.512 38.208 87.808 85.312 87.808H128c23.552 0 42.688-19.648 42.688-43.904A43.328 43.328 0 0 0 128 462.848z"  horiz-adv-x="1024" />

    
    <glyph glyph-name="lipei_shenheyijian" unicode="&#59372;" d="M152.678767 53.530609c-81.875957 0-148.285477 66.40952-148.285477 148.285477V743.625864c0 81.872287 66.40952 148.285477 148.285477 148.285477h722.305376c81.993405 0 148.402925-66.358136 148.597448-148.443298v-541.651957c0-81.875957-66.40952-148.285477-148.285476-148.285477h-144.152774l-154.961664-154.957993c-16.519799-16.288573-38.666093-25.691756-62.196071-25.691756a87.931871 87.931871 0 0 0-62.335541 25.831226L296.831541 53.530609H152.678767z m722.305376 782.578237H152.682437c-51.06053 0-92.486652-41.426122-92.486652-92.482982v-541.809778c0-51.05686 41.426122-92.482982 92.486652-92.482982h167.264344l171.165821-171.165821a32.147728 32.147728 0 0 1 22.876674-9.487598c8.610409 0 16.769376 3.464717 22.880344 9.487598l171.162151 171.165821h167.268014c51.05686 0 92.482982 41.426122 92.482982 92.482982V743.405649c-0.117448 51.273405-41.587613 92.703197-92.794953 92.703197zM514.139756 637.493219c19.367914 0 34.860043-15.183828 34.860043-48.649176v-120.384229c0-33.311197-15.64628-53.607685-34.860043-53.607685-19.364244 0-35.168344 20.450638-35.168344 53.607685v120.384229c0 33.311197 15.8041 48.649176 35.168344 48.649176z m-0.15415-281.981706a34.977491 34.977491 0 0 0 35.014193-35.014194c0-19.367914-15.80043-35.014194-35.014193-35.014194-19.364244 0-35.014194 15.8041-35.014194 35.014194a34.977491 34.977491 0 0 0 35.014194 35.014194z"  horiz-adv-x="1024" />

    
    <glyph glyph-name="tubiao-" unicode="&#58964;" d="M207.826 511.727l48.265 48.287 303.969-303.969-48.287-48.242zM464.1 256.273l303.946 303.946 48.287-48.265-303.969-303.969z"  horiz-adv-x="1024" />

    
    <glyph glyph-name="icon_zhengqiutarenyijian" unicode="&#59541;" d="M921.6 844.8H102.4A102.4 102.4 0 0 1 0 742.4v-563.2a102.4 102.4 0 0 1 102.4-102.4h51.2v-153.6l192 153.6h576a102.4 102.4 0 0 1 102.4 102.4V742.4A102.4 102.4 0 0 1 921.6 844.8zM542.912 176.512a63.232 63.232 0 0 0-63.808 62.464c0 34.496 28.544 62.464 63.808 62.464 35.136 0 63.808-28.032 63.808-62.464a63.168 63.168 0 0 0-63.808-62.464z m171.264 353.536c-12.544-19.648-39.04-46.4-79.744-80.256-21.056-17.472-34.176-31.616-39.232-42.304-5.056-10.624-7.424-29.696-6.976-57.216H497.408l-0.384 23.872c0 29.376 4.864 53.568 14.592 72.512 9.728 19.008 29.184 40.32 58.304 64 29.12 23.744 46.592 39.232 52.288 46.592a62.528 62.528 0 0 1 13.184 38.336c0 19.392-7.872 35.968-23.36 49.856-15.488 13.824-36.544 20.736-62.912 20.736-25.408 0-46.72-7.232-63.808-21.696-17.024-14.336-31.744-46.144-35.2-65.792-3.264-18.624-92.8-26.432-91.712 11.2 1.088 37.632 20.672 78.464 54.272 108.096 33.6 29.632 77.696 44.416 132.224 44.416 57.408 0 103.04-14.976 137.024-44.992 33.984-30.016 50.88-64.896 50.88-104.704 0.064-22.08-6.208-42.944-18.624-62.656z"  horiz-adv-x="1024" />

    
    <glyph glyph-name="yonghu" unicode="&#58890;" d="M512-128C229.248-128 0 101.248 0 384S229.248 896 512 896s512-229.248 512-512-229.248-512-512-512z m0 938.666667C276.352 810.666667 85.333333 619.648 85.333333 384s191.018667-426.666667 426.666667-426.666667 426.666667 191.018667 426.666667 426.666667S747.648 810.666667 512 810.666667z m0-768a340.650667 340.650667 0 0 0-266.24 128A340.650667 340.650667 0 0 0 512 298.666667a340.48 340.48 0 0 0 266.197333-128A340.48 340.48 0 0 0 512 42.666667z m0 298.666666a170.666667 170.666667 0 1 0 0 341.333334 170.666667 170.666667 0 0 0 0-341.333334z"  horiz-adv-x="1024" />

    
    <glyph glyph-name="icon-yijianfankui" unicode="&#58911;" d="M23.81 695.93c133.76 47.31 267.59 94.39 401.37 141.62 135.89-48.01 271.77-96.04 407.66-144.03-135.49-47.71-270.98-95.43-406.46-143.18-1.24-0.63-2.5 0.1-3.68 0.44-63.74 22.29-127.52 44.45-191.25 66.75-68.26 25.72-136.5 51.48-204.72 77.27-3.9 2.38-7.79-1.08-11.63-1.91-0.38 2.25-0.75 4.51-1.12 6.76 3.27-1.27 6.53-2.55 9.83-3.72zM874.84 645.21c10.78 3.84 21.55 7.75 32.35 11.56 1.29 0.7 2.43-0.51 3.53-1.04 36.43-22.05 72.95-43.97 109.4-65.99 1.1-12.52 3.02-25.06 3.68-37.56-19.42-37.73-38.98-75.39-58.39-113.12-51.24 29.13-102.34 58.5-153.63 87.54 20.08 38.72 40.56 77.24 60.72 115.93 0.6 1 1.03 2.39 2.34 2.68zM0 612.01c136.5-47.31 273.08-94.37 409.48-141.95 0.06-178.7-0.01-357.4 0.04-536.1C273.02-18.39 136.49 29.18 0 76.85V612.01zM785.51 476.73c50.3-31.29 100.66-62.5 150.97-93.78C881.6 276.45 826.67 169.97 771.7 63.5c-1.86-0.76-3.7-1.54-5.53-2.34-49.8 24.93-99.71 49.62-149.51 74.54-0.43 5.44-1.39 10.84-1.6 16.29 56.69 108.3 113.66 216.48 170.45 324.74zM601.52-22.21c3.68 33.29 7.62 66.56 11.4 99.85 33.82-15.78 67.63-31.6 101.44-47.42 7.84 7.65 15.78 15.2 23.65 22.8 3.88 1.46 8.32 0.84 12.4 1.62-4.54-2.57-10.13-3.36-13.84-7.28-34.62-30-69.29-59.95-103.92-89.95-9.55-8.7-20.54-15.58-30.89-23.27-0.59 14.53-0.13 29.11-0.24 43.65z"  horiz-adv-x="1040" />

    
    <glyph glyph-name="wushuju" unicode="&#58893;" d="M748.2 520c-23.9 95.4-109.7 166.4-212.6 167-102.6 0.6-189.1-69.2-214.2-164-2.2 0.1-4.3 0.3-6.4 0.4-121.9 0.7-221.2-97.6-221.9-219.4-0.7-121.2 96.5-220 217.3-221.8v-0.1h391.3v0.5c2.7-0.1 5.3-0.4 8-0.4 121.9-0.7 221.2 97.6 221.9 219.5 0.6 109.4-78.8 200.5-183.4 218.3zM581.5 487.2c-16.6 14.8-38.2 22.2-64.9 22.2-30.3 0-54.2-8.9-71.8-26.7-17.6-17.8-26.4-42.1-26.4-72.8h0.2c0-0.3-0.2-0.5-0.2-0.8 0-10.1 8.1-18.2 18.2-18.2s18.2 8.1 18.2 18.2c0 0.3-0.2 0.5-0.2 0.8h0.2c0 46.2 20 69.4 60.1 69.4 15.4 0 28-4.4 38-13.4 10-8.9 15-20.3 15-34.2 0-16.2-9.3-32.7-27.8-49.3L526.2 370c-13.5-12.1-22.1-22.5-26-31.4-3.8-8.9-5.7-23.3-5.7-43.1l-0.2-3.4V291.5h0.1c0.2-9.3 7.8-16.7 17.1-16.7 9.5 0 17.2 7.7 17.2 17.2 0 0.4-0.2 0.8-0.2 1.2l0.2 5.9c0 20.4 9.7 38.5 29.1 54.3 32.5 26.6 48.7 52 48.7 76.3-0.1 23.5-8.4 42.7-25 57.5zM532.1 233.5v0.4c-0.2 10.6-8.8 19.1-19.4 19.1-10.6 0-19.2-8.5-19.4-19.1V212c0-10.8 8.7-19.5 19.5-19.5s19.5 8.7 19.5 19.5v21.3c-0.2 0.1-0.2 0.1-0.2 0.2z"  horiz-adv-x="1024" />

    
    <glyph glyph-name="xiugaimima" unicode="&#58910;" d="M950.896786 322.50724c5.969977 30.240882 9.099964 61.50276 9.099964 93.494635C959.99675 681.097839 745.094589 896 479.998625 896S0.0005 681.097839 0.0005 416.001875s214.902161-479.998125 479.998125-479.998125c31.991875 0 63.253753 3.129988 93.494635 9.099964a271.948938 271.948938 0 0 0-27.651892 56.030782A423.131347 423.131347 0 0 0 479.998625-3.996484C248.039531-3.996484 60.000266 184.042781 60.000266 416.001875S248.039531 836.000234 479.998625 836.000234s419.998359-188.039265 419.998359-419.998359c0-22.399913-1.753993-44.390827-5.13098-65.842743a271.949938 271.949938 0 0 0 56.029782-27.651892zM414.998879 500.001547h139.999453v69.999726c0 38.659849-31.339878 69.999727-69.999727 69.999727s-69.999727-31.339878-69.999726-69.999727v-69.999726z m262.998973-164.233359C615.388096 303.464315 566.882286 247.652533 544.153374 180.002797H325.999227c-18.777927 0-33.999867 15.221941-33.999868 33.999867V466.00168c0 18.777927 15.221941 33.999867 33.999868 33.999867h36.999855v69.999726c0 67.378737 54.620787 121.999523 121.999523 121.999524 67.378737 0 121.999523-54.620787 121.999524-121.999524v-69.999726h36.999855c18.777927 0 33.999867-15.221941 33.999868-33.999867v-130.233492z m-218.999145-21.777915V231.002598h51.999797v82.987675c25.785899 10.32096 43.999828 35.539861 43.999828 65.011747 0 38.659849-31.339878 69.999727-69.999727 69.999726s-69.999727-31.339878-69.999726-69.999726c0-29.471885 18.213929-54.689786 43.999828-65.011747zM718.024695 236.798575a165.999352 165.999352 0 0 0 43.379831 17.98293l5.689978 44.382826c1.087996 8.482967 8.309968 14.837942 16.862934 14.837942h38.079851c8.552967 0 15.774938-6.354975 16.861934-14.837942l5.689978-44.382826a165.999352 165.999352 0 0 0 43.38083-17.98293l35.418862 27.369893c6.767974 5.22898 16.366936 4.615982 22.414912-1.431994l26.926895-26.926895c6.047976-6.047976 6.659974-15.646939 1.430995-22.414913l-27.368893-35.418861a165.999352 165.999352 0 0 0 17.982929-43.379831l44.382827-5.689978c8.482967-1.087996 14.837942-8.309968 14.837942-16.862934v-38.079851c0-8.552967-6.354975-15.774938-14.837942-16.861934l-44.382827-5.689978a165.999352 165.999352 0 0 0-17.982929-43.38083l27.369893-35.418862c5.22898-6.767974 4.615982-16.366936-1.431995-22.414912l-26.926895-26.926895c-6.047976-6.047976-15.646939-6.659974-22.414912-1.430995l-35.418862 27.368893a165.999352 165.999352 0 0 0-43.37983-17.982929l-5.689978-44.382827c-1.087996-8.482967-8.309968-14.837942-16.862934-14.837942h-38.079851c-8.552967 0-15.774938 6.354975-16.861934 14.837942l-5.689978 44.382827a165.999352 165.999352 0 0 0-43.380831 17.982929l-35.418861-27.369893c-6.767974-5.22898-16.366936-4.615982-22.414913 1.431995l-26.926895 26.926895c-6.047976 6.047976-6.659974 15.646939-1.430994 22.414912l27.368893 35.418862a165.999352 165.999352 0 0 0-17.98293 43.37983l-44.382826 5.689978c-8.482967 1.087996-14.837942 8.309968-14.837942 16.862934v38.079851c0 8.552967 6.354975 15.774938 14.837942 16.861934l44.382826 5.689978a165.999352 165.999352 0 0 0 17.98293 43.380831l-27.369893 35.418861c-5.22898 6.767974-4.615982 16.366936 1.431994 22.414913l26.926895 26.926895c6.047976 6.047976 15.646939 6.659974 22.414913 1.430994l35.418861-27.368893zM802.997363 13.003449c44.182827 0 79.999688 35.81686 79.999688 79.999688s-35.81686 79.999688-79.999688 79.999687-79.999688-35.81686-79.999687-79.999687 35.81686-79.999688 79.999687-79.999688z"  horiz-adv-x="1024" />

    
    <glyph glyph-name="ic_accepted" unicode="&#58903;" d="M938.656 725.344l-512-512L256 128l85.344 170.656 512 512zM170.656 42.656l-85.344-85.344h853.344l-85.344 85.344z"  horiz-adv-x="1024" />

    
    <glyph glyph-name="tuichudenglu" unicode="&#58888;" d="M573.2 249.5H309.8c-12.6 0-20.8 5.8-22.9 16.1-0.4 2.1-0.4 4.2-0.4 6.4V498.8c0 14.3 7.8 22 22.3 22H573.1v6.9 201.8c0 9.3 4.4 16.6 11.9 19.5 8.6 3.3 16.2 1.8 22.7-5.1 3.7-3.9 7.8-7.5 11.6-11.4 48.2-48.1 96.3-96.2 144.5-144.2 61.9-61.7 123.7-123.4 185.6-185.2 10.3-10.3 10.4-21.1 0.2-31.2-88.5-88.4-177-176.8-265.6-265.1-25.2-25.1-50.5-50.1-75.7-75.2-6.5-6.5-13.7-9.3-22.5-6-8.6 3.3-12.6 10-12.6 20.7V249.5z m-159 497.3v-76.4H212.9c-41 0-71.3-30.3-71.3-71.4 0-142.3 0.3-284.6-0.2-426.9-0.1-37.7 28.5-64.8 55-69.7 5.9-1.1 11.9-1.6 17.9-1.6 64.2-0.1 128.4-0.1 192.6-0.1h7.2v-76c-0.9-0.2-2-0.6-3-0.6-68.2 0-136.5-0.7-204.7 0.3-66.7 1-125.7 51.6-138.5 117.1-1.8 9.2-2.7 18.8-2.7 28.2-0.2 143.8-0.5 287.7 0.1 431.5 0.3 60.1 30.1 103.2 82.2 131.2 18.4 9.9 38.7 14.4 59.6 14.4 67.7 0.2 135.3 0.1 203 0.1 1.1 0 2.3-0.1 4.1-0.1z m0 0"  horiz-adv-x="1024" />

    
    <glyph glyph-name="chakanyilaiguanxishu" unicode="&#58946;" d="M995.033639 817.712538a39.143731 39.143731 0 0 1 0 78.287462h-391.437309a39.143731 39.143731 0 0 1-39.143731-39.143731V426.275229H179.278287a39.143731 39.143731 0 0 1 0-78.287461h382.042814v-433.712539a39.143731 39.143731 0 0 1 39.143731-39.143731h391.437309a39.143731 39.143731 0 0 1 0 78.287462h-352.293578V347.987768h355.425076a39.143731 39.143731 0 0 1 0 78.287461H639.608563V817.712538zM1136.733945 856.073394m-39.926606 0a39.926606 39.926606 0 1 1 79.853211 0 39.926606 39.926606 0 1 1-79.853211 0ZM1136.733945 384m-39.926606 0a39.926606 39.926606 0 1 1 79.853211 0 39.926606 39.926606 0 1 1-79.853211 0ZM39.926606 384m-39.926606 0a39.926606 39.926606 0 1 1 79.853211 0 39.926606 39.926606 0 1 1-79.853211 0ZM1136.733945-88.073394m-39.926606 0a39.926606 39.926606 0 1 1 79.853211 0 39.926606 39.926606 0 1 1-79.853211 0Z"  horiz-adv-x="1176" />

    
    <glyph glyph-name="weiwancheng" unicode="&#58979;" d="M978.84511 513.863805a37.565931 37.565931 0 1 1-26.555227 69.950354 37.565931 37.565931 0 1 1 26.555227-69.950354zM994.389633 436.141188a37.565931 37.565931 0 1 1 0-75.131862 37.565931 37.565931 0 1 1 0 75.131862zM983.378929 285.229776a37.565931 37.565931 0 1 1-10.363015-74.484174 37.565931 37.565931 0 1 1 11.010703 74.484174zM878.453397 125.898413a36.270554 36.270554 0 0 1 9.715327-52.462766 37.565931 37.565931 0 1 1 42.747439 64.768847 36.270554 36.270554 0 0 1-52.462766-12.306081zM778.709373 24.211324a36.270554 36.270554 0 0 1-7.772261-53.110455 37.565931 37.565931 0 1 1 60.235027 44.690504 36.270554 36.270554 0 0 1-52.462766 8.419951zM653.705499-41.8529a36.270554 36.270554 0 0 1-23.964473-47.928947 37.565931 37.565931 0 1 1 71.245731 23.964474 36.270554 36.270554 0 0 1-47.281258 23.964473zM513.80479-63.226619a447.552731 447.552731 0 1 0 299.879761 777.22616h-45.985881a32.384423 32.384423 0 0 1 0-64.768847h115.936235a32.384423 32.384423 0 0 1 32.384423 32.384423V798.84673a32.384423 32.384423 0 0 1-64.768846 0V766.462307a511.673889 511.673889 0 1 1-337.445692-894.457773 32.384423 32.384423 0 0 1 0 64.768847zM791.663143 101.93394a32.384423 32.384423 0 0 1 0 45.985881l-245.473929 246.121617V608.426321a32.384423 32.384423 0 0 1-64.768847 0V377.849226a32.384423 32.384423 0 0 1 9.715327-22.669096l255.189256-255.189256a32.384423 32.384423 0 0 1 45.985881 0z"  horiz-adv-x="1034" />

    
    <glyph glyph-name="wenzhenyijianxiaoicon" unicode="&#58905;" d="M85.333333 738.986667V315.733333c0-23.893333-20.48-40.96-40.96-40.96S0 291.84 0 315.733333V851.626667C0 875.52 20.48 892.586667 40.96 892.586667H921.6c23.893333 0 40.96-20.48 40.96-40.96s-20.48-40.96-40.96-40.96H150.186667c-37.546667-6.826667-61.44-27.306667-64.853334-71.68zM959.146667-110.933333h-6.826667l-354.986667 170.666666H208.213333c-51.2 0-88.746667 40.96-88.746666 92.16V684.373333c0 51.2 40.96 92.16 88.746666 92.16h791.893334c51.2 0 88.746667-40.96 88.746666-92.16v-532.48c0-51.2-40.96-92.16-88.746666-92.16h-58.026667l34.133333-153.6c0-6.826667 0-13.653333-6.826666-17.066666h-10.24z m-249.173334 559.786666h-71.68V520.533333c0 23.893333-20.48 44.373333-44.373333 44.373334-23.893333 0-44.373333-20.48-44.373333-44.373334v-71.68H477.866667c-23.893333 0-44.373333-20.48-44.373334-44.373333 0-23.893333 20.48-44.373333 44.373334-44.373333h71.68v-71.68c0-23.893333 20.48-44.373333 44.373333-44.373334 23.893333 0 44.373333 20.48 44.373333 44.373334v71.68h71.68c23.893333 0 44.373333 20.48 44.373334 44.373333 0 27.306667-20.48 44.373333-44.373334 44.373333z"  horiz-adv-x="1092" />

    
    <glyph glyph-name="guanlian" unicode="&#58996;" d="M925.7 382.3v3.8c-0.3 88.9-72.3 161-161.2 161.2H559c-88.9-0.3-160.9-72.3-161.2-161.2v-3.8c0-7.4 0.6-14.6 1.6-21.8h75.2c-1.9 7.1-2.8 14.4-2.8 21.8v3.8c0 48.2 39.1 87.3 87.3 87.3h205.4c48.2 0 87.3-39.1 87.3-87.3v-3.8c-0.1-48.2-39.1-87.3-87.3-87.3h-92.9c-11.8-27.8-29.1-52.9-50.8-73.9h143.7c89 0.3 161 72.3 161.2 161.2z m-299.8 3.8c0 7.3-0.5 14.5-1.5 21.7h-75.2c1.8-7 2.8-14.3 2.8-21.8v-3.8c0-48.2-39.1-87.3-87.3-87.3H259.4c-48.2 0-87.3 39.1-87.3 87.3V386c0.1 48.2 39.1 87.3 87.3 87.3h92.9c11.8 27.8 29.1 52.9 50.8 73.9l-143.7 0.1C170.3 547.1 98.3 475 98 386.1v-3.8c0.3-88.9 72.3-160.9 161.2-161.2h205.4c88.9 0.3 161 72.3 161.2 161.2l0.1 3.8z"  horiz-adv-x="1024" />

    
    <glyph glyph-name="weiwancheng-tianchong" unicode="&#59416;" d="M638.592-1.184a24 24 0 1 0 14.88-45.648c-10.384-3.36-21.024-6.416-31.68-9.072a24 24 0 0 0-11.584 46.576 426.72 426.72 0 0 1 28.384 8.144z m-118.592-36.96c4.992-4.4 8.224-10.72 8.224-17.856 0-7.232-3.216-13.648-8.224-18.048v-6.16l-15.136 0.256-0.432-0.048H504c-2.384 0-4.752 0.16-7.12 0.192l-1.296 0.016-0.592 0.016a493.68 493.68 0 0 0-20.16 0.768c-1.088 0.064-2.192 0.048-3.264 0.112-0.512 0.032-0.976 0.192-1.472 0.256-38.224 2.72-75.2 9.952-110.4 21.28-0.352 0.112-0.704 0.064-1.056 0.176-2.768 0.896-5.504 2.048-8.272 2.992a504.048 504.048 0 0 0-14.496 5.248c-2.736 1.056-5.536 1.904-8.24 2.992-0.752 0.304-1.392 0.736-2.08 1.104a470.368 470.368 0 0 0-96.624 53.664c-0.624 0.368-1.312 0.528-1.92 0.96a478.688 478.688 0 0 0-25.952 20.256c-0.912 0.768-1.664 1.632-2.432 2.496a475.312 475.312 0 0 0-74.576 79.84c-0.48 0.544-1.056 0.992-1.504 1.6-2.544 3.488-4.864 7.216-7.328 10.816-1.536 2.224-3.04 4.448-4.544 6.704-2.192 3.28-4.512 6.4-6.608 9.728-0.496 0.8-0.816 1.632-1.216 2.448a471.28 471.28 0 0 0-47.024 100.544c-0.16 0.416-0.448 0.72-0.592 1.152-0.416 1.312-0.72 2.656-1.136 3.984a470.4 470.4 0 0 0-7.456 25.888l-0.512 1.808c-0.096 0.384-0.096 0.784-0.176 1.168a469.536 469.536 0 0 0-13.92 112.64L32 391.136V392c0 9.648 0.368 19.184 0.96 28.688 0.048 1.104 0.032 2.192 0.096 3.28 0.032 0.528 0.192 0.992 0.256 1.504a469.104 469.104 0 0 0 21.04 109.984c0.128 0.496 0.16 0.992 0.32 1.472 0.88 2.704 1.984 5.312 2.912 8.016 1.776 5.216 3.632 10.4 5.6 15.52 0.96 2.464 1.728 5.04 2.704 7.456 0.288 0.688 0.672 1.28 1.008 1.936a471.888 471.888 0 0 0 52.928 95.856c0.512 0.976 1.024 1.968 1.696 2.896 6.4 8.848 13.2 17.584 20.208 25.984 0.736 0.864 1.568 1.584 2.384 2.32a474.48 474.48 0 0 0 79.664 74.624c0.608 0.56 1.168 1.168 1.856 1.664 3.392 2.496 7.008 4.72 10.512 7.136 2.576 1.792 5.168 3.552 7.776 5.296 3.024 1.984 5.92 4.16 8.96 6.064 0.736 0.464 1.504 0.752 2.256 1.136a471.232 471.232 0 0 0 99.84 46.928c0.656 0.272 1.264 0.64 1.952 0.864 1.328 0.432 2.72 0.752 4.064 1.168 0.928 0.304 1.856 0.656 2.8 0.96 7.632 2.368 15.328 4.544 23.12 6.528 0.56 0.16 1.104 0.352 1.664 0.496 0.4 0.096 0.784 0.08 1.168 0.176a471.2 471.2 0 0 0 112.624 14.016L502.704 864v-0.032L503.6 864h0.4c7.536 0 15.024-0.176 22.512-0.528 1.888-0.096 3.776-0.288 5.664-0.4 1.088-0.064 2.256-0.032 3.36-0.112 0.448-0.032 0.864-0.16 1.328-0.224 4-0.272 8.032-0.48 12.016-0.864 3.44-0.32 6.832-0.8 10.256-1.2 3.968-0.464 7.952-0.848 11.888-1.424 3.424-0.48 6.816-1.12 10.208-1.68 3.936-0.656 7.872-1.232 11.776-1.984 3.232-0.608 6.4-1.376 9.6-2.048 4.048-0.864 8.128-1.68 12.16-2.64 2.896-0.704 5.728-1.52 8.608-2.272 4.304-1.12 8.64-2.208 12.928-3.456 2.432-0.704 4.832-1.536 7.28-2.288l3.536-1.104c0.464-0.128 0.928-0.16 1.376-0.304 1.024-0.32 2-0.752 3.024-1.088 2-0.656 4.032-1.28 6.032-1.968 1.952-0.672 3.888-1.44 5.84-2.144 4.992-1.776 10-3.584 14.944-5.552 0.384-0.16 0.784-0.272 1.184-0.432 0.16-0.064 0.32-0.176 0.496-0.256 0.912-0.368 1.792-0.784 2.688-1.152 5.52-2.256 11.008-4.56 16.432-7.024 0.864-0.384 1.696-0.816 2.544-1.216 5.968-2.752 11.872-5.584 17.712-8.592l0.976-0.528a468.032 468.032 0 0 0 58.976-36.24c0.304-0.192 0.624-0.304 0.912-0.512 1.04-0.768 2-1.6 3.024-2.368 7.04-5.168 13.936-10.528 20.704-16.096 0.736-0.608 1.552-1.168 2.288-1.776 0.096-0.096 0.176-0.224 0.304-0.32 6.416-5.36 12.736-10.864 18.896-16.592l-0.16-0.16c1.248-1.184 2.56-2.272 3.808-3.472l17.856-16.96L520 390.064v-428.208z m332.656 687.936a24 24 0 1 0 38.688 28.384c6.448-8.784 12.688-17.92 18.528-27.2a23.968 23.968 0 0 0-20.272-36.8 24 24 0 0 0-20.32 11.2 422.88 422.88 0 0 1-16.624 24.416z m60.544-121.28a23.984 23.984 0 1 0 45.6 14.976c3.408-10.4 6.496-21.04 9.168-31.616a24 24 0 1 0-46.528-11.76 439.312 439.312 0 0 1-8.24 28.4z m-157.488-469.12A24 24 0 0 0 784 20.592c-8.896-6.48-18.064-12.672-27.264-18.432a24 24 0 0 0-25.488 40.672c8.24 5.168 16.48 10.736 24.48 16.56zM953.056 416a24 24 0 0 0 24-24v-1.712c0-10.928-0.368-21.984-1.12-32.864a24 24 0 1 0-47.872 3.264c0.64 9.776 0.992 19.648 0.992 29.6V392a24 24 0 0 0 24 24z m-63.68-260.592a24 24 0 0 0 5.28-33.536 475.504 475.504 0 0 0-20.272-25.92 23.888 23.888 0 0 0-18.4-8.576 23.984 23.984 0 0 0-18.368 39.408c6.288 7.52 12.432 15.36 18.24 23.344a24.016 24.016 0 0 0 33.52 5.28z m48.72 131.424a24 24 0 0 0 15.424-30.24 481.6 481.6 0 0 0-11.248-30.944 24.032 24.032 0 0 0-31.2-13.312 23.968 23.968 0 0 0-13.328 31.2c3.68 9.152 7.056 18.432 10.112 27.888a24.048 24.048 0 0 0 30.24 15.408z"  horiz-adv-x="1024" />

    
    <glyph glyph-name="zhuanjia" unicode="&#58930;" d="M745.244444 753.777778l147.911112-273.066667L512 56.888889 130.844444 480.711111 278.755556 753.777778h466.488888M796.444444 839.111111H227.555556L28.444444 469.333333l483.555556-540.444444 483.555556 540.444444-199.111112 369.777778zM682.666667 560.355556l-170.666667-190.577778-170.666667 190.577778-56.888889-62.577778 227.555556-256 227.555556 256z"  horiz-adv-x="1024" />

    
    <glyph glyph-name="export" unicode="&#58902;" d="M657.7 259.1c11.9 12.4 11.9 31.8-0.5 44.3-11.9 11.9-31.8 11.9-43.8 0l-70.6-70.6V530.2c0 16.9-13.9 30.8-30.8 30.8s-30.8-13.9-30.8-30.8v-297.5L412 301.9c-11.9 11.9-31.8 11.9-43.8 0-11.9-11.9-11.9-31.8 0-43.8l122.4-122.4c11.9-11.9 31.8-11.9 43.8 0l123.3 123.4z m0 0M782.5 592.4C739.8 709 627.8 792.8 496.3 792.8c-166.5 0-301.6-133.6-304.2-299.6-74-26.2-127.4-96.6-128.5-179.3-1-106.9 89.4-194.2 195.8-194.2H320c17.5 0 31.9 14.4 31.9 31.9s-14.4 31.9-31.9 31.9h-61.7c-63.2 0-119.2 45.2-129 107.4-10.3 62.2 26.2 121.3 83.8 141.3l42.1 14.9 0.5 44.7c2.1 137.2 121.8 247.2 261 235.3 94-8.2 174.2-72.5 206.6-161.3l9.8-27.2 32.4-8.7c81.2-21.6 136.7-98.1 130.5-183.4-6.7-92.5-86.3-162.9-179.3-162.9h-12.8c-17.5 0-31.9-14.4-31.9-31.9s14.4-31.9 31.9-31.9h11.8c132.6 0 243.6 105.9 244.6 238.4 1.6 112.4-74.5 207-177.8 234.2zM769-24.799999999999955H256.8c-13.7 0-24.9 11.2-24.9 24.9v12.7c0 13.7 11.2 24.9 24.9 24.9H769c13.7 0 24.9-11.2 24.9-24.9v-12.7c0-13.7-11.2-24.9-24.9-24.9z"  horiz-adv-x="1024" />

    
    <glyph glyph-name="youjiantoushixinxiao" unicode="&#58935;" d="M384 192V576l256-192z"  horiz-adv-x="1024" />

    
    <glyph glyph-name="shang" unicode="&#59017;" d="M512.4096 458.1376L263.509333 209.2032l-48.298666 48.264533L512.4096 554.666667l297.233067-297.198934-48.298667-48.264533z"  horiz-adv-x="1024" />

    
    <glyph glyph-name="wushuju1" unicode="&#58998;" d="M759.39456 158.4064c-15.488 0-30.94656 2.0672-45.94944 6.14016a23.05536 23.05536 0 0 1-24.02432-7.79904c-46.1568-57.4336-114.81728-90.3744-188.3648-90.3744-72.1536 0-139.97184 31.88736-186.07104 87.47648a23.0464 23.0464 0 0 1-17.7536 8.34048c-1.25568 0-2.52928-0.09728-3.80416-0.31104-9.72288-1.62944-19.50464-2.45376-29.056-2.45376-96.35456 0-174.7392 78.33088-174.7392 174.62016 0 91.97056 71.88224 168.49792 163.65568 174.22848a23.04512 23.04512 0 0 1 20.75648 16.74496C303.22688 628.51328 398.8096 700.79488 506.47424 700.79488c107.94624 0 203.58784-72.5184 232.59776-176.35328 2.75456-9.88416 11.72352-16.75008 21.98912-16.84864 95.43296-0.88704 173.06752-79.2064 173.06752-174.57408 0-96.27776-78.38336-174.61376-174.7328-174.61376m19.09504 394.44992C738.92736 667.89504 629.39648 746.87616 506.47424 746.87616c-122.8992 0-232.56832-79.0784-272.07552-194.19776C126.14144 537.97888 43.52128 444.87936 43.52128 334.04544 43.52 212.34816 142.592 113.34528 264.3712 113.34528c7.80928 0 15.712 0.43264 23.62624 1.28512 54.54976-60.11136 131.4688-94.33728 213.056-94.33728 82.68416 0 160.16384 34.94016 214.81728 96.3648a220.99072 220.99072 0 0 1 43.52256-4.33152c121.77536 0 220.8448 99.00288 220.8448 220.69376 0 114.82624-89.04064 210.09024-201.74848 219.83616M511.8848 235.91168c-14.624 0-26.48064-11.84768-26.48064-26.46144 0-14.61248 11.85664-26.45504 26.47936-26.45504 14.624 0 26.47936 11.84256 26.47936 26.45504 0 14.61376-11.85536 26.46144-26.47936 26.46144M511.8848 555.23328c-39.5584 0-75.81952-19.95776-97.01376-53.3952-11.60832-18.32192-17.7408-39.5136-17.7408-61.28 0-12.7232 10.3232-23.04 23.05536-23.04 12.73216 0 23.05536 10.3168 23.05536 23.04 0 13.02912 3.66592 25.69472 10.58816 36.6272 12.68736 20.02176 34.38848 31.968 58.0544 31.968 37.84576 0 68.64256-30.77504 68.64256-68.5952 0-37.82656-30.7968-68.5952-68.64256-68.5952-12.73216 0-23.05536-10.3168-23.05536-23.04v-67.19744c0-12.7232 10.3232-23.04 23.05536-23.04 12.73344 0 23.05664 10.3168 23.05664 23.04v46.4832c52.26112 10.69696 91.69792 57.00736 91.69792 112.34944 0 63.22688-51.47776 114.6752-114.75456 114.6752"  horiz-adv-x="1024" />

    
    <glyph glyph-name="--yijianfankuiicon" unicode="&#58892;" d="M527.29944 127.203154a14.236979 14.236979 0 0 0-12.962026 9.987134l-80.747043 250.740818-63.535173-157.031749a14.236979 14.236979 0 0 0-23.799128-4.462337l-48.235734 50.998133-141.519817-1.487446a14.236979 14.236979 0 0 0 0 28.686449l148.744553 1.699938a14.449471 14.449471 0 0 0 10.624611-4.462336l37.186138-39.311061 69.059971 172.968666a14.236979 14.236979 0 0 0 26.986511 0l80.109567-253.503216 83.084457 189.75555a14.236979 14.236979 0 0 0 25.499066 1.274954l35.698693-62.685205 202.292592 2.337415a14.236979 14.236979 0 1 0 0-28.68645l-210.579789-2.337414a14.449471 14.449471 0 0 0-12.53704 7.224735l-25.711559 45.260843-86.909317-198.25524a14.236979 14.236979 0 0 0-12.749533-8.712181zM884.923843-117.375389H138.43868A71.609878 71.609878 0 0 0 66.828803-45.765512V701.144636a71.609878 71.609878 0 0 0 71.609877 71.82237h120.69558a14.236979 14.236979 0 0 0 0-28.68645H138.43868a42.498444 42.498444 0 0 1-42.498443-42.498444v-747.547624a42.498444 42.498444 0 0 1 42.498443-42.498443H884.923843a42.498444 42.498444 0 0 1 42.498444 42.498443V701.144636a42.498444 42.498444 0 0 1-42.498444 42.498443h-120.058103a14.236979 14.236979 0 0 0 0 28.68645H884.923843a71.609878 71.609878 0 0 0 72.247354-71.184893v-746.910148a71.609878 71.609878 0 0 0-72.247354-71.609877zM765.503216 672.245694H258.284291a14.236979 14.236979 0 0 0-14.236978 14.236979V748.5304a82.021996 82.021996 0 0 0 82.021996 81.809505h77.55966a14.236979 14.236979 0 1 0 0-28.68645H326.069309a53.335547 53.335547 0 0 1-53.335547-53.335547v-47.598257h478.532476V748.5304a53.335547 53.335547 0 0 1-53.335547 53.335547H629.933181a14.236979 14.236979 0 0 0 0 28.68645h67.99751a82.021996 82.021996 0 0 0 82.021996-82.021997v-62.047727a14.236979 14.236979 0 0 0-14.449471-14.236979zM574.047728 747.255447h-115.595767a69.272463 69.272463 0 1 0 0 138.544927h115.595767a69.272463 69.272463 0 1 0 0-138.544927z m-115.595767 109.433493a40.586014 40.586014 0 1 1 0-81.172028h115.595767a40.586014 40.586014 0 0 1 0 81.172028z"  horiz-adv-x="1024" />

    


  </font>
</defs>
</svg>
